+ jackiekennedysellsjerseyshorehomes.com »  :::: Bollywood Zone » Bollywood Movies (Original Rips) » Small Size Bollywood Movies
|- Vishwaroopam 2013 x264 720p BluRay Esub Dual Audio Hindi Tamil GOPISAHI


100% Bill Offer

Vishwaroopam 2013 x264 720p BluRay Esub Dual Audio Hindi Tamil GOPISAHI

0 Members and 1 Guest are viewing this topic.

August 12, 2018, 01:04:54 PM
  • Legend Member
  • ****
  • Topic Author
  • Thank You: 1319
  • Reputation: 510
  • Activity:
    100%
  • Country: pk
  • Posts: 1570
  • Topics: 881
  • Join Date: Mar 2015
  • ShareSpark Member
Vishwaroopam 2013 x264 720p BluRay Esub Dual Audio Hindi Tamil GOPISAHI








Format : Matroska

Format version : Version 4 / Version 2

File size : 811 MiB

Duration : 2 h 28 min

Overall bit rate : 762 kb/s

Movie name : Vishwaroopam 2013 GOPISAHI


Video

Format : AVC

Format/Info : Advanced Video Codec

Codec ID : V_MPEG4/ISO/AVC

Duration : 2 h 28 min

Bit rate : 599 kb/s

Width : 1 280 pixels

Height : 536 pixels

Display aspect ratio : 2.40:1

Frame rate mode : Constant

Frame rate : 23.976 (24000/1001) FPS

Color space : YUV

Chroma subsampling : 4:2:0

Bit depth : 8 bits

Scan type : Progressive

Bits/(Pixel*Frame) : 0.036

Stream size : 637 MiB (79%)

Title : GOPISAHI

Writing library : x264 core 155 r2901 7d0ff22


Audio #1

Format : AAC

Format/Info : Advanced Audio Codec

Duration : 2 h 28 min

Bit rate : 96.0 kb/s

Channel(s) : 2 channels

Channel positions : Front: L R

Sampling rate : 48.0 kHz

Frame rate : 46.875 FPS (1024 SPF)

Compression mode : Lossy

Delay relative to video : 3 ms

Stream size : 102 MiB (13%)

Title : GOPISAHI

Language : Hindi


Audio #2

Format : AAC

Format/Info : Advanced Audio Codec

Duration : 2 h 28 min

Bit rate : 64.3 kb/s

Channel(s) : 2 channels

Channel positions : Front: L R

Sampling rate : 48.0 kHz

Frame rate : 46.875 FPS (1024 SPF)

Compression mode : Lossy

Delay relative to video : -21 ms

Stream size : 68.4 MiB (8%)

Title : GOPISAHI

Language : Tamil


Text

Language : English



 :ss:













 :download:
























Share this topic on FacebookShare this topic on GoogleShare this topic on MySpaceShare this topic on TwitterShare this topic on Yahoo



Thanks given by:


August 13, 2018, 12:38:09 PM
Reply #1
  • Semi Newbie
  • **
  • Thank You: 0
  • Reputation: 0
  • Activity:
    1.4%
  • Posts: 24
  • Topics: 0
  • Join Date: Sep 2013
  • ShareSpark Member

August 13, 2018, 03:15:35 PM
Reply #2
  • Begginer
  • **
  • Thank You: 0
  • Reputation: 0
  • Activity:
    2.6%
  • Posts: 85
  • Topics: 0
  • Join Date: Sep 2013
  • ShareSpark Member
thanks, please could you provide better hindi audio sync

Tags:
 

Related Topics





Back to top
Sitemap