+ jackiekennedysellsjerseyshorehomes.com »  :::: Bollywood Zone » Regional Movies » Tamil Movies
|- Irumbu Thirai (2018) 480p HDRip x264 [Tamil] YsB TeaM Fl & SSX


100% DTH Offer

Irumbu Thirai (2018) 480p HDRip x264 [Tamil] YsB TeaM Fl & SSX

0 Members and 1 Guest are viewing this topic.

July 06, 2018, 11:09:46 AM
  • Admin
  • Legend Member
  • ****
  • Topic Author
  • Thank You: 653
  • Reputation: 641
  • Activity:
    6%
  • Country: cn
  • Posts: 2394
  • Topics: 521
  • Join Date: Dec 2011
  • ShareSpark Member
  • Expertises:
  • Bollywood Movies
  • PC Applications
  • PC Games
Irumbu Thirai (2018) 480p HDRip x264 [Tamil] YsB TeaM Fl & SSX



:info:

Code: [Select]
General
Complete name               : Irumbu Thirai (2018) 480p HDRip x264 [Tamil] YsB TeaM Fl & SSX.mkv
Format                      : Matroska
Format version              : Version 4 / Version 2
File size                   : 591 MiB
Duration                    : 2 h 40 min
Overall bit rate            : 516 kb/s
Movie name                  : Irumbu Thirai (2018) 480p HDRip x264 [Tamil] YsB TeaM Fl & SSX
Encoded date                : UTC 2018-07-05 08:01:49
Writing application         : mkvmerge v8.1.0 ('Psychedelic Postcard') 64bit
Writing library             : libebml v1.3.1 + libmatroska v1.4.2

Video
ID                          : 1
Format                      : AVC
Format/Info                 : Advanced Video Codec
Format profile              : [email protected]
Format settings             : CABAC / 5 Ref Frames
Format settings, CABAC      : Yes
Format settings, ReFrames   : 5 frames
Codec ID                    : V_MPEG4/ISO/AVC
Duration                    : 2 h 40 min
Bit rate                    : 450 kb/s
Width                       : 848 pixels
Height                      : 352 pixels
Display aspect ratio        : 2.40:1
Frame rate mode             : Constant
Frame rate                  : 29.970 (29970/1000) FPS
Original frame rate         : 29.970 (30000/1001) FPS
Color space                 : YUV
Chroma subsampling          : 4:2:0
Bit depth                   : 8 bits
Scan type                   : Progressive
Bits/(Pixel*Frame)          : 0.050
Stream size                 : 515 MiB (87%)
Title                       : YsB TeaM Fl

Audio
ID                          : 2
Format                      : AC-3
Format/Info                 : Audio Coding 3
Codec ID                    : A_AC3
Duration                    : 2 h 40 min
Bit rate mode               : Constant
Bit rate                    : 64.0 kb/s
Channel(s)                  : 2 channels
Channel positions           : Front: L R
Sampling rate               : 48.0 kHz
Frame rate                  : 31.250 FPS (1536 SPF)
Bit depth                   : 16 bits
Compression mode            : Lossy
Stream size                 : 73.3 MiB (12%)
Title                       : YsB TeaM Fl
Language                    : Tamil
Service kind                : Complete Main
Default                     : Yes
Forced                      : No

Text
ID                          : 3
Format                      : UTF-8
Codec ID                    : S_TEXT/UTF8
Codec ID/Info               : UTF-8 Plain Text
Duration                    : 2 h 40 min
Bit rate                    : 78 b/s
Count of elements           : 2647
Stream size                 : 92.6 KiB (0%)
Title                       : YsB TeaM Fl
Language                    : Finnish
Default                     : Yes
Forced                      : No

:ss:







:download:










Thanks.
TeaM FL , TeaM SSX, AnantaRdp



Share this topic on FacebookShare this topic on GoogleShare this topic on MySpaceShare this topic on TwitterShare this topic on Yahoo

« Last Edit: July 06, 2018, 11:49:54 AM by Ðj sαм »


Thanks given by:


July 06, 2018, 11:33:17 AM
Reply #1
  • Addic7ed
  • Legend Member
  • ****
  • Thank You: 77
  • Reputation: 39
  • Activity:
    43%
  • Posts: 1601
  • Topics: 121
  • Join Date: May 2012
  • ShareSpark Member
@Ðj sαм

thanks for the post
clicknupload link
is only of Size 410 KB

but no issues, will use UTB

July 06, 2018, 11:50:27 AM
Reply #2
  • Admin
  • Legend Member
  • ****
  • Topic Author
  • Thank You: 653
  • Reputation: 641
  • Activity:
    6%
  • Country: cn
  • Posts: 2394
  • Topics: 521
  • Join Date: Dec 2011
  • ShareSpark Member
  • Expertises:
  • Bollywood Movies
  • PC Applications
  • PC Games
@Ðj sαм

thanks for the post
clicknupload link
is only of Size 410 KB

but no issues, will use UTB
@honey01
Link Updated. :yahoo:

July 06, 2018, 08:19:48 PM
Reply #3
  • Addic7ed
  • Legend Member
  • ****
  • Thank You: 77
  • Reputation: 39
  • Activity:
    43%
  • Posts: 1601
  • Topics: 121
  • Join Date: May 2012
  • ShareSpark Member
good movie and pretty relevant to our times

thanks

 

Related Topics

  Subject / Started by Replies Last post
5 Replies
1555 Views
Last post January 31, 2017, 12:16:20 PM
by Vagabond
0 Replies
1227 Views
Last post February 10, 2018, 11:05:25 AM
by Abhik
2 Replies
2153 Views
Last post June 05, 2018, 10:26:31 AM
by Rάήνίјάч1234
1 Replies
745 Views
Last post July 07, 2018, 05:00:21 PM
by honey01
0 Replies
241 Views
Last post July 28, 2018, 10:17:26 AM
by ♥ Mann ♥




Back to top
Sitemap