+ jackiekennedysellsjerseyshorehomes.com »  :::: Bollywood Zone » Regional Movies » Tamil Movies
|- Bharat Ane Nenu (2018) HDRip 720p Telugu H.264 AAC -


10% SBI and 10% Discount

Bharat Ane Nenu (2018) HDRip 720p Telugu H.264 AAC -

0 Members and 1 Guest are viewing this topic.

June 10, 2018, 01:58:02 PM
  • Legend Member
  • ****
  • Topic Author
  • Thank You: 1328
  • Reputation: 513
  • Activity:
    100%
  • Country: pk
  • Posts: 1618
  • Topics: 921
  • Join Date: Mar 2015
  • ShareSpark Member
Bharat Ane Nenu (2018) HDRip 720p Telugu H.264 AAC -






General
Format : Matroska
Format version : Version 4 / Version 2
File size : 1.64 GiB
Duration : 2 h 48 min
Overall bit rate : 1 390 kb/s
Encoded date : UTC 2018-06-09 16:43:40
Writing application : mkvmerge v23.0.0 ('The Bride Said No') 32-bit
Writing library : libebml v1.3.6 + libmatroska v1.4.9
Cover : Yes
Attachments : Cover.jpg

Video
ID : 1
Format : AVC
Format/Info : Advanced Video Codec
Format profile : [email protected]
Format settings : CABAC / 5 Ref Frames
Format settings, CABAC : Yes
Format settings, ReFrames : 5 frames
Codec ID : V_MPEG4/ISO/AVC
Duration : 2 h 48 min
Bit rate : 1 088 kb/s
Width : 1 280 pixels
Height : 544 pixels
Display aspect ratio : 2.35:1
Frame rate mode : Constant
Frame rate : 23.976 (23976/1000) FPS
Color space : YUV
Chroma subsampling : 4:2:0
Bit depth : 8 bits
Scan type : Progressive
Bits/(Pixel*Frame) : 0.065
Stream size : 1.28 GiB (78%)
Title : Shahzaib Shah
Default : Yes
Forced : No

Audio
ID : 2
Format : AAC
Format/Info : Advanced Audio Codec
Format profile : LC
Codec ID : A_AAC-2
Duration : 2 h 48 min
Bit rate : 298 kb/s
Channel(s) : 2 channels
Channel positions : Front: L R
Sampling rate : 48.0 kHz
Frame rate : 46.875 FPS (1024 SPF)
Compression mode : Lossy
Stream size : 360 MiB (21%)
Title : Shahzaib Shah
Language : Telugu
Default : Yes
Forced : No



 :ss:





























 :download:























Dont Forget Sharing May Hobby

Click BY

Thanks     +Repute

Share this topic on FacebookShare this topic on GoogleShare this topic on MySpaceShare this topic on TwitterShare this topic on Yahoo



Thanks given by:


June 11, 2018, 06:23:47 PM
Reply #1
  • Newbie
  • **
  • Thank You: 0
  • Reputation: 0
  • Activity:
    0.2%
  • Country: in
  • Posts: 4
  • Topics: 0
  • Join Date: Mar 2018
  • ShareSpark Member
8 Thottakkal 2017 IN HINDI PLEASE SIR UPLOAD

June 12, 2018, 03:50:40 PM
Reply #2
  • Legend Member
  • ****
  • Topic Author
  • Thank You: 1328
  • Reputation: 513
  • Activity:
    100%
  • Country: pk
  • Posts: 1618
  • Topics: 921
  • Join Date: Mar 2015
  • ShareSpark Member

Tags: 8 thottakkal 
 

Related Topics





Back to top
Sitemap