+ jackiekennedysellsjerseyshorehomes.com »  :::: Bollywood Zone » Regional Movies » Marathi Movies
|- YE RE YE RE PAISA 2018 [MARATHI] PDVDRIP [543 MB]


10% SBI and 10% Discount

YE RE YE RE PAISA 2018 [MARATHI] PDVDRIP [543 MB]

0 Members and 1 Guest are viewing this topic.

February 24, 2018, 12:31:51 PM
  • Devoted Member
  • **
  • Topic Author
  • Thank You: 5
  • Reputation: 0
  • Activity:
    0%
  • Country: in
  • Posts: 178
  • Topics: 4
  • Join Date: Mar 2012
  • ShareSpark Member
Video
ID : 1
Format : AVC
Format/Info : Advanced Video Codec
Format profile : [email protected]
Format settings : CABAC / 4 Ref Frames
Format settings, CABAC : Yes
Format settings, ReFrames : 4 frames
Codec ID : avc1
Codec ID/Info : Advanced Video Coding
Duration : 2 h 16 min
Bit rate : 420 kb/s
Width : 352 pixels
Height : 288 pixels
Display aspect ratio : 16:9
Frame rate mode : Constant
Frame rate : 25.000 FPS
Standard : PAL
Color space : YUV
Chroma subsampling : 4:2:0
Bit depth : 8 bits
Scan type : Progressive
Bits/(Pixel*Frame) : 0.166
Stream size : 412 MiB (76%)Audio
ID : 2
Format : AAC
Format/Info : Advanced Audio Codec
Format profile : LC
Codec ID : mp4a-40-2
Duration : 2 h 16 min
Duration_LastFrame : -8 ms
Bit rate mode : Constant
Bit rate : 128 kb/s
Channel(s) : 2 channels
Channel positions : Front: L R
Sampling rate : 48.0 kHz
Frame rate : 46.875 FPS (1024 SPF)
Compression mode : Lossy
Stream size : 125 MiB (23%)
Default : Yes
Alternate group : 1

SCREENSHOTS











Quote




Share this topic on FacebookShare this topic on GoogleShare this topic on MySpaceShare this topic on TwitterShare this topic on Yahoo



Thanks given by:


Tags:
 

Related Topics

  Subject / Started by Replies Last post
0 Replies
797 Views
Last post April 18, 2014, 06:40:52 PM
by Best
2 Replies
1119 Views
Last post January 12, 2016, 03:25:46 PM
by omkar.puranik.1
1 Replies
1063 Views
Last post January 23, 2017, 10:05:54 PM
by proyer
2 Replies
2569 Views
Last post March 19, 2018, 09:39:26 PM
by ksanket96
0 Replies
126 Views
Last post July 25, 2018, 12:25:24 PM
by ♥ Mann ♥




Back to top
Sitemap