+ jackiekennedysellsjerseyshorehomes.com »  :::: Bollywood Zone » Regional Movies » Marathi Movies
|- Baapjanma 2017 720p WebHDRip x264 AAC [TMB]


Mastercard 10% Off

Baapjanma 2017 720p WebHDRip x264 AAC [TMB]

0 Members and 1 Guest are viewing this topic.

November 11, 2017, 10:06:58 PM
  • Global Moderator
  • Legend Member
  • *****
  • Topic Author
  • Thank You: 10534
  • Reputation: 2138
  • Activity:
    100%
  • Country: in
  • Posts: 5319
  • Topics: 4394
  • Join Date: Jan 2014
  • ıllıllı ѕмoĸιng ιѕ good ғor нealтн ıllıllı :)
Baapjanma 2017 720p WebHDRip x264 AAC [TMB]



:info:

Quote
Format : MPEG-4
Format profile : Base Media / Version 2
Codec ID : mp42 (isom/iso2/avc1/mp41)
File size : 1.99 GiB
Duration : 2 h 1 min
Overall bit rate mode : Variable
Overall bit rate : 2 349 kb/s

Video
Format : AVC
Format/Info : Advanced Video Codec
Format profile : [email protected]
Format settings : CABAC / 4 Ref Frames
Format settings, CABAC : Yes
Format settings, ReFrames : 4 frames
Codec ID : avc1
Codec ID/Info : Advanced Video Coding
Duration : 2 h 1 min
Bit rate : 2 075 kb/s
Width : 1 280 pixels
Height : 540 pixels
Display aspect ratio : 2.35:1
Original display aspect rat : 2.35:1
Frame rate mode : Variable
Frame rate : 28.906 FPS
Minimum frame rate : 14.985 FPS
Maximum frame rate : 29.970 FPS
Color space : YUV
Chroma subsampling : 4:2:0
Bit depth : 8 bits
Scan type : Progressive
Bits/(Pixel*Frame) : 0.104
Stream size : 1.74 GiB (88%)
Writing library : x264 core 148 r2708 86b7198

Audio
Format : AAC
Format/Info : Advanced Audio Codec
Format profile : LC
Codec ID : mp4a-40-2
Duration : 2 h 1 min
Bit rate mode : Variable
Bit rate : 281 kb/s
Channel(s) : 2 channels
Channel positions : Front: L R
Sampling rate : 48.0 kHz
Frame rate : 46.875 FPS (1024 SPF)
Compression mode : Lossy
Stream size : 244 MiB (12%)







:download:

Quote













File Leeched & Uploaded From




Don't walk as you are king, walk as you don't care who the king is....!!
Never argue with an idiot. They drag you down to their level and then beat you with experience?

Share this topic on FacebookShare this topic on GoogleShare this topic on MySpaceShare this topic on TwitterShare this topic on Yahoo




Don't walk as you are king, walk as you don't care who the king is....!!

Thanks given by:


Tags:
 

Related Topics

  Subject / Started by Replies Last post
0 Replies
771 Views
Last post March 19, 2017, 01:43:07 PM
by PSYCHO
0 Replies
671 Views
Last post May 19, 2017, 11:25:37 AM
by exdking
0 Replies
464 Views
Last post June 20, 2017, 08:11:08 AM
by exdking
0 Replies
860 Views
Last post November 11, 2017, 10:21:41 PM
by Rάήνίјάч1234
0 Replies
1059 Views
Last post November 11, 2017, 10:30:32 PM
by Rάήνίјάч1234




Back to top
Sitemap