+ jackiekennedysellsjerseyshorehomes.com »  :::: Bollywood Zone » Regional Movies » Marathi Movies
|- Tula Kalnnaar Nahi 2017 1080p WebHDRip x264 AAC [TMB] - 2.93 GB


TV and Appliances

Tula Kalnnaar Nahi 2017 1080p WebHDRip x264 AAC [TMB] - 2.93 GB

0 Members and 1 Guest are viewing this topic.

November 02, 2017, 03:02:48 PM
  • Global Moderator
  • Legend Member
  • *****
  • Topic Author
  • Thank You: 10106
  • Reputation: 2088
  • Activity:
    100%
  • Country: in
  • Posts: 5242
  • Topics: 4324
  • Join Date: Jan 2014
  • ıllıllı ѕмoĸιng ιѕ good ғor нealтн ıllıllı :)
Tula Kalnnaar Nahi 2017 1080p WebHDRip x264 AAC [TMB] - 2.93 GB




:info:

Quote
Format : MPEG-4
Format profile : Base Media / Version 2
Codec ID : mp42 (isom/iso2/avc1/mp41)
File size : 2.91 GiB
Duration : 2 h 0 min
Overall bit rate : 3 442 kb/s

Video
Format : AVC
Format/Info : Advanced Video Codec
Format profile : [email protected]
Format settings : CABAC / 4 Ref Frames
Format settings, CABAC : Yes
Format settings, RefFrames : 4 frames
Codec ID : avc1
Codec ID/Info : Advanced Video Coding
Duration : 2 h 0 min
Bit rate : 3 277 kb/s
Width : 1 920 pixels
Height : 816 pixels
Display aspect ratio : 2.35:1
Frame rate mode : Variable
Frame rate : 23.976 (23976/1000) FPS
Minimum frame rate : 11.987 FPS
Maximum frame rate : 23.981 FPS
Color space : YUV
Chroma subsampling : 4:2:0
Bit depth : 8 bits
Scan type : Progressive
Bits/(Pixel*Frame) : 0.087
Stream size : 2.74 GiB (94%)
Writing library : x264 core 148 r2708 86b7198

Audio
Format : AC-3
Format/Info : Audio Coding 3
Format settings, Endianness : Big
Codec ID : ac-3
Duration : 2 h 0 min
Bit rate mode : Constant
Bit rate : 192 kb/s
Channel(s) : 2 channels
Channel positions : Front: L R
Sampling rate : 48.0 kHz
Frame rate : 31.250 FPS (1536 SPF)
Bit depth : 16 bits
Compression mode : Lossy
Stream size : 166 MiB (6%)

:ss:








:download:

Quote











File Leeched & Uploaded From




Don't walk as you are king, walk as you don't care who the king is....!!
Never argue with an idiot. They drag you down to their level and then beat you with experience?

Share this topic on FacebookShare this topic on GoogleShare this topic on MySpaceShare this topic on TwitterShare this topic on Yahoo




Don't walk as you are king, walk as you don't care who the king is....!!

Thanks given by:


November 03, 2017, 12:33:15 AM
Reply #1
  • Newbie
  • **
  • Thank You: 0
  • Reputation: 0
  • Activity:
    0%
  • Country: in
  • Posts: 3
  • Topics: 0
  • Join Date: Nov 2017
  • ShareSpark Member

November 03, 2017, 12:38:31 AM
Reply #2
  • Global Moderator
  • Legend Member
  • *****
  • Topic Author
  • Thank You: 10106
  • Reputation: 2088
  • Activity:
    100%
  • Country: in
  • Posts: 5242
  • Topics: 4324
  • Join Date: Jan 2014
  • ıllıllı ѕмoĸιng ιѕ good ғor нealтн ıllıllı :)

Don't walk as you are king, walk as you don't care who the king is....!!

Tags:
 

Related Topics





Back to top
Sitemap